#TITLE:Step Up;
#SUBTITLE:;
#ARTIST:Darin;
#TITLETRANSLIT:;
#SUBTITLETRANSLIT:;
#ARTISTTRANSLIT:Darin;
#CREDIT:;
#BANNER:Step Up-bn.png;
#BACKGROUND:Step Up-bg.png;
#LYRICSPATH:;
#CDTITLE:pm4cd.png;
#MUSIC:Step Up.mp3;
#OFFSET:0.000;
#SAMPLESTART:46.910;
#SAMPLELENGTH:15.000;
#SELECTABLE:YES;
#BPMS:0.000=151.200,253.333=90.720,256.667=151.200;
#STOPS:;
#BGCHANGES:;
// cache tags:
#FIRSTBEAT:1.000;
#LASTBEAT:470.000;
#SONGFILENAME:Songs/nhac/Step Up/Step Up.sm;
#HASMUSIC:1;
#HASBANNER:1;
#MUSICLENGTH:189.534;
// end cache tags

//---------------dance-single - ----------------
#NOTES:
     dance-single:
     :
     Hard:
     13:
     1.000,1.000,1.000,0.269,1.000,969.000,478.000,51.000,0.000,125.000:
0000
0000
0000
0000
0101
0000
0000
0000
0000
0000
0000
0100
0000
0000
0000
0010
,
0000
0001
0010
0000
0100
0000
0001
0000
0000
1001
0000
0000
,
0000
0000
0000
0100
0000
0000
0000
0000
0000
0010
0000
0000
0000
0000
0100
0000
0001
0000
0000
0000
1000
0000
0000
0000
,
0001
0000
1100
0000
0000
0000
0010
0100
0000
0101
0101
0000
,
1010
1010
0000
0000
0010
0000
0100
0000
1011
0000
0000
1000
,
0000
0100
0000
0011
0011
0000
0110
0020
0000
0001
0000
0100
,
0000
0000
0000
1131
0000
0000
0000
0000
0001
0000
0000
0000
0110
0000
0000
0000
0101
0000
0101
0000
0000
0000
1010
0000
,
1010
0000
0000
0011
0000
0010
0000
1101
0000
0000
1100
0000
,
0001
0000
1100
1100
0000
0011
0011
0000
0000
1100
0000
0010
,
0000
1101
0000
0000
1100
0000
0010
0000
1001
1001
0000
0110
,
0110
0000
1100
0000
0001
0000
1110
0000
0000
1010
0000
0100
,
0000
0011
0011
0000
0110
0110
0000
0000
1001
0000
1000
0000
,
1101
0000
0010
0000
1100
0000
0011
0011
0000
1100
1100
0000
,
0101
0000
0010
0000
1100
0000
0010
0000
0101
0000
1000
0000
,
0101
0101
0000
1010
1010
0000
0001
0000
1100
0000
0000
0111
,
0000
1000
0000
0101
0000
0000
1100
1100
0000
0101
0101
0000
,
0010
0000
1010
0000
0001
1110
0000
0001
0000
1100
0000
0101
,
0101
0000
0110
0110
0000
0101
0000
0010
0000
1100
0000
0111
,
0000
1000
0000
0101
0000
1001
1001
0000
1100
1100
0000
0010
,
0000
0101
0000
1000
0100
0011
0000
0100
0000
1001
0000
1010
,
1010
0000
1001
1001
0000
0010
0000
0101
0000
0000
1011
0000
,
0100
0000
0011
0000
1010
1010
0000
0011
0011
0000
0100
0000
,
1001
0000
0010
1101
0000
0010
0000
1100
0000
0000
0101
0101
,
0000
0110
0110
0000
0001
0000
1100
0000
1000
1011
0000
0001
,
0010
0100
1000
0100
0011
0011
0100
1010
1010
0001
0010
0100
,
1000
0100
0010
0001
0010
0100
0010
0001
1000
0101
0101
0010
,
1100
1100
0010
0100
0010
0001
0010
0100
1001
0010
0100
0010
,
0001
0010
0100
1001
1001
0010
0101
0101
0010
1000
0100
0010
,
0100
0010
0002
0100
0010
1000
0100
0010
1100
1100
0000
0110
,
0110
0000
0000
0000
1000
0000
0000
0000
0110
0000
0000
0000
1000
0000
0000
1113
0000
0000
0000
0000
0001
0000
0010
0000
,
0100
0010
0101
0101
0010
1100
1100
0010
0100
1000
0100
0010
,
0100
1011
0000
0000
0000
0100
0010
0100
1010
1010
0100
0011
,
0011
1100
1001
1100
1001
1100
0111
0000
0000
0000
0000
0100
,
1000
0100
1010
1010
0100
1001
1001
0010
0100
0010
0001
0010
,
1101
0000
0000
0000
1110
0001
1100
1100
0010
0101
0101
0010
,
1001
1001
0010
1100
0011
0010
1101
0000
0000
0001
0010
0100
,
0011
0011
0100
0010
0101
0101
0010
0100
1000
0100
0010
1101
,
0000
0000
0001
0010
0001
0100
1010
1010
0100
1001
1001
0010
,
0100
0010
0001
0010
0100
1011
0000
0000
0100
0010
0100
1010
,
1010
0100
0011
0011
0100
0010
0100
1000
0100
0010
0001
1110
,
0000
0000
0000
0111
1000
0101
0101
0010
1001
1001
0010
0101
,
1010
0100
1010
0001
1101
0000
0001
0000
0010
0000
1100
1100
,
0000
0011
0011
0000
1100
0000
0100
0000
1100
0000
1011
0000
,
0100
0000
1000
0000
0101
0101
0000
1010
1010
0000
0101
0000
,
0001
0000
0101
0000
1110
0000
0011
0001
0011
0001
0011
0011
,
0100
1100
1100
0100
1100
0100
0101
0100
0100
1101
0000
0010
,
0000
0001
0000
1010
1010
0000
0101
0101
0000
0020
0000
0000
,
0000
0000
0000
1131
0000
0101
0000
0010
0000
1100
1100
0000
,
0011
0011
0000
0100
0000
1010
0100
0100
1101
0000
0010
0000
,
0101
0000
0110
0110
0000
1001
1001
0000
1010
1010
0000
0000
,
0010
0000
1101
0000
0010
0000
1100
0000
0101
0101
0000
1010
,
1010
0000
0100
0000
0011
0000
0100
0000
1011
0000
0100
0000
,
0011
0000
1001
1001
0000
0110
0110
0000
0000
1100
0000
0010
,
0000
1101
0000
0100
0000
1100
0000
0101
0101
0000
0011
0011
,
0000
0100
0000
1001
0000
0010
0000
1202
0000
0320
0000
0230
,
0000
2300
0000
3200
0000
0320
0000
1230
0000
2300
0000
3200
,
0000
1313
0000
0100
0000
0011
0000
1010
1010
0000
0101
0101
,
0000
0010
0000
1001
0000
0000
1101
0000
0010
0000
1100
0010
,
0100
0101
0101
0100
0101
0100
0101
0100
0101
0100
0101
0100
,
1011
0100
0010
0001
0010
0001
1100
1100
0010
0101
0101
0010
,
0100
0010
0100
1000
0100
0010
0001
0010
0100
0010
0001
0010
,
1100
1100
0001
1010
1010
0100
0010
0100
0010
0100
0010
0101
,
0010
0001
0010
0100
0010
1001
1001
0010
1100
1100
0001
0010
,
0100
1000
0100
0010
0200
0000
0000
0000
0000
0000
0000
0000
,
1311
0000
0000
0000
0000
0000
0000
0000
0000
0000
0000
0000
0000
0000
0000
0000
0000
0000
0000
0000
0000
0000
0000
0000
0000
0000
0000
0000
0000
0000
0000
0000
0000
0000
0000
0000
0000
0000
0000
0000
0000
0000
0000
0000
0000
0000
0000
0000
0000
0000
0000
0000
0000
0000
1110
0000
0000
0000
0000
0000
0000
0000
0000
0000
0000
0000
0000
0000
0000
0000
0000
0000
0000
0000
0000
0000
0000
0000
0000
0000
0010
0000
0000
0000
0000
0000
0000
0000
0000
0000
0000
0000
0000
0000
0000
0000
0101
0000
0000
0000
0000
0000
0000
0000
0000
0000
0000
0000
0000
0000
0000
0000
1000
0000
0000
0000
0000
0000
0000
0000
0000
0000
0000
0000
0000
0000
0000
0000
0011
0000
0000
0000
0000
0000
0000
0000
0000
0000
0000
0000
0000
0000
0000
0000
0100
0000
0000
0000
0000
0000
0000
0000
0000
0000
0000
0000
0000
0000
0000
0000
0011
0000
0000
0000
0000
0000
0000
0000
0000
0000
0000
0000
0000
0000
0000
0000
0011
0000
0000
0000
0000
0000
0000
0000
0000
0000
0000
0000
0000
0000
0000
0000
,
0100
1001
1001
0100
0011
0100
1001
0110
0010
1101
0000
0000
,
1010
0100
0100
0100
0011
0011
0100
1001
1001
0010
1100
0010
,
0101
0010
1000
0111
0000
0000
0000
1100
1000
1001
1001
0010
,
0101
0101
0010
1001
0100
1010
0101
0001
1101
0000
0000
1001
,
0001
0101
0001
0011
0011
0001
0101
0101
0001
1001
0001
0001
,
0011
0001
0111
0000
1000
0100
0010
0001
0010
1100
1100
0010
,
0101
0101
0010
0001
0010
0100
1000
0100
1011
0000
0000
1001
,
0010
1001
0010
1001
1001
0010
1100
1100
0010
0101
0010
0101
,
0010
1101
0000
0000
0001
0010
0001
1100
1100
0001
0110
0110
,
0001
0010
0100
1000
0101
0010
0100
1011
0000
0000
0000
0010
,
0100
0110
0110
0100
1100
1100
0100
0101
0100
0101
0100
0101
,
1200
0000
0302
0000
0023
0000
0230
0000
2300
0000
3200
0000
,
0320
0000
0032
0000
0023
0000
0230
0000
2300
0000
3200
0000
,
0320
0000
0032
0000
0023
0000
0230
0000
2300
0000
3200
0000
,
0320
0000
0032
0000
0023
0000
0230
0000
2300
0000
3200
0000
,
0320
0000
0132
0000
0123
0000
1230
0000
2300
0000
3200
0000
,
0320
0000
0032
0000
0023
0000
0230
0000
2300
0000
0000
3111
,
0000
0000
0101
0000
0010
0000
1100
1100
0000
1001
1001
0000
,
0010
0000
1100
0000
0101
0000
0010
0000
1100
0000
0000
0101
,
0101
0000
1010
1010
0000
0001
0000
1100
0000
0101
0000
0010
,
0000
1001
0000
0000
0101
0101
0000
1100
1100
0000
0010
0000
,
1001
0000
0010
0000
1100
0000
0010
0000
0011
0000
1001
1001
,
0000
0110
0110
0000
0001
0000
1100
0000
0010
0000
0101
0000
,
0000
0000
0001
0000
0000
0100
0000
0010
1000
0000
0100
0000
,
0001
0000
0000
1100
0000
0000
0000
0001
0001
0000
0010
0000
,
1000
0100
0000
0000
0010
0000
1000
0000
0011
0000
0000
0000
,
0000
0001
0010
1100
1100
0000
1001
1001
0000
0010
0000
0101
,
0000
1010
0000
0100
0000
0000
1000
1000
1000
1100
1000
1000
,
1100
1000
1000
1110
0000
0000
0010
0000
1111
0000
0001
0010
,
0100
1000
0111
0111
1000
0100
1011
1011
0100
0010
0001
0010
,
0100
0010
1101
0000
0000
0000
0001
0010
1101
1101
0010
0100
,
1011
1011
0100
0010
0100
1000
0100
1011
0000
0000
0100
0010
,
0100
1011
1011
0100
1000
0111
0111
1000
0100
0010
0100
1000
,
0100
1011
0000
0000
0010
1010
0010
0111
0111
0010
1011
1011
,
0010
0010
0110
0010
0110
0010
1111
0000
0000
1000
0100
0010
,
0001
1110
1110
0001
0010
1101
1101
0010
0100
0010
0001
0010
,
1101
0000
0000
0000
0010
0100
1000
0111
0111
0100
1011
1011
,
0100
0010
0001
0010
0100
1000
0111
0000
0000
1000
0100
0010
,
1101
1101
0010
1101
1101
0010
0100
1000
0100
0010
0001
1110
,
0000
0000
0000
0100
0100
1110
1110
0100
1101
1101
0100
0101
,
0100
1100
0100
1100
0100
1111
0000
0000
0001
0010
0100
1011
,
1011
0100
1011
1011
0100
0010
0001
0010
0100
1000
0111
0000
,
0000
0000
1000
0100
0010
1101
1101
0100
1011
1011
0100
0010
,
0001
0010
0100
0001
1110
0000
0000
0000
0001
0010
1101
1101
,
0001
1110
1110
0001
0010
0100
1000
0100
0010
0101
0010
0100
,
1010
0001
1011
0001
0111
0001
1101
0001
0111
0001
1011
0001
,
0111
0001
1011
1111
0000
0000
0110
0000
0101
0000
0011
0011
,
0000
1100
1100
0000
0011
0000
0101
0000
1001
0000
0110
0000
,
1010
0000
0101
0000
0011
0000
0101
0000
1010
0000
1100
0000
,
1010
0000
0110
0000
0101
0000
0011
0000
1001
0000
1100
0000
,
1001
0000
0110
0000
1001
0000
1100
0000
0101
0000
0110
0000
,
0011
0011
0000
1100
0000
0011
0011
0000
2200
0000
0000
0000
,
0000
0000
3300
0000
;
